Рекомендуем:
Торрентино » музыка » Black Sabbath - Headless Cross (1989-2010) APE

Black Sabbath - Headless Cross (1989-2010) APE

/ загрузок:  0 / Комментариев: 0
Пожаловаться
Название: Headless Cross
Исполнитель: Black Sabbath
Год: 1989
Жанр: Hard, Heavy Metal
Страна: UK

Продолжительность: 00:45:22
Формат/Кодек: APE
Битрейт аудио: Lossless

Трек-лист

01. The Gates Of Hell (01:05)
02. Headless Cross (06:32)
03. Devil & Daughter (04:44)
04. When Death Calls (06:59)
05. Kill In The Spirit World (05:12)
06. Call Of The Wild (05:21)
07. Black Moon (04:07)
08. Nightwing (06:42)
Bonus Track:
09. Cloak And Dagger (Bonus Track) (04:35)

Log EAC"

Exact Audio Copy V0.99 prebeta 4 from 23. January 2008

Отчёт EAC об извлечении, выполненном 31. мая 2010, 20:43

Black Sabbath / Headless Cross (2010 Japan Remastered)

Дисковод: PIONEER BD-ROM BDC-202 Adapter: 1 ID: 0

Режим чтения : Достоверность
Использование точного потока : Да
Отключение кэша аудио : Да
Использование указателей C2 : Нет

Коррекция смещения при чтении : 667
Способность читать области Lead-in и Lead-out : Нет
Заполнение пропущенных сэмплов тишиной : Да
Удаление блоков с тишиной в начале и конце : Нет
При вычислениях CRC использовались нулевые сэмплы : Да
Интерфейс : Установленный внешний ASPI-интерфейс

Выходной формат : Внутренние WAV-операции
Формат сэмплов : 44.100 Гц; 16 бит; стерео

TOC извлечённого CD

Трек | Старт | Длительность | Начальный сектор | Конечный сектор
---------------------------------------------------------------------
1 | 0:00.00 | 1:05.19 | 0 | 4893
2 | 1:05.19 | 6:32.05 | 4894 | 34298
3 | 7:37.24 | 4:44.60 | 34299 | 55658
4 | 12:22.09 | 6:59.45 | 55659 | 87128
5 | 19:21.54 | 5:12.65 | 87129 | 110593
6 | 24:34.44 | 5:21.25 | 110594 | 134693
7 | 29:55.69 | 4:07.55 | 134694 | 153273
8 | 34:03.49 | 6:42.50 | 153274 | 183473
9 | 40:46.24 | 4:35.58 | 183474 | 204156

Характеристики диапазона извлечения и сообщения об ошибках

Выбранный диапазон

Имя файла E:[Heavy Metal] Black Sabbath - Headless Cross (2010 Japan Remastered) [APE+CUE]CD.wav

Пиковый уровень 97.7 %
Качество диапазона 99.9 %
CRC копии F0AF5DEA
Копирование... OK

Ошибок не произошло

Конец отчёта

*cue

REM GENRE "Heavy Metal"
REM DATE 2010
REM DISCID 820AA209
REM COMMENT "ExactAudioCopy v0.99pb4"
PERFORMER "Black Sabbath"
TITLE "Headless Cross (2010 Japan Remastered)"
FILE "CD.wav" WAVE
TRACK 01 AUDIO
TITLE "The Gates Of Hell"
PERFORMER "Black Sabbath"
INDEX 01 00:00:00
TRACK 02 AUDIO
TITLE "Headless Cross"
PERFORMER "Black Sabbath"
INDEX 01 01:05:19
TRACK 03 AUDIO
TITLE "Devil & Daughter"
PERFORMER "Black Sabbath"
INDEX 00 07:35:24
INDEX 01 07:37:24
TRACK 04 AUDIO
TITLE "When Death Calls"
PERFORMER "Black Sabbath"
INDEX 00 12:20:09
INDEX 01 12:22:09
TRACK 05 AUDIO
TITLE "Kill In The Spirit World"
PERFORMER "Black Sabbath"
INDEX 00 19:19:54
INDEX 01 19:21:54
TRACK 06 AUDIO
TITLE "Call Of The Wild"
PERFORMER "Black Sabbath"
INDEX 00 24:32:44
INDEX 01 24:34:44
TRACK 07 AUDIO
TITLE "Black Moon"
PERFORMER "Black Sabbath"
INDEX 00 29:53:69
INDEX 01 29:55:69
TRACK 08 AUDIO
TITLE "Nightwing"
PERFORMER "Black Sabbath"
INDEX 00 34:01:49
INDEX 01 34:03:49
TRACK 09 AUDIO
TITLE "Cloak And Dagger (Bonus Track)"
PERFORMER "Black Sabbath"
INDEX 00 40:44:24
INDEX 01 40:46:24

auCDtect log

-----------------------

DON'T MODIFY THIS FILE

-----------------------

PERFORMER: auCDtect Task Manager, ver. 1.5.1RC2 build 1.5.1.3
Copyright © 2008-2010 y-soft. All rights reserved
http://y-soft.org

ANALYZER: auCDtect: CD records authenticity detector, version 0.8.2
Copyright © 2004 Oleg Berngardt. All rights reserved.
Copyright © 2004 Alexander Djourik. All rights reserved.

FILE: CD.ape
Size: 310320024 Hash: 1DED1BB88B8B864261413B44966AC67A Accuracy: -m0
Conclusion: CDDA 100%
Signature: 1D1898C64BA15A36DDED96CF88D1B2BCA36C0DA6
Комментарии 0
Комментариев пока нет. Стань первым!
Добавить комментарий